Cerca nel blog

BE CAREFUL...

1) Do not share links: from now, every link is tracked so if a link would be sharing, the IP address is shown by me and I will banned who share link.

2) Requests 5 links in one day if they are not shown here only to some.links.for.everybody@gmail.com

3) DO NOT ASK RELEASES IF THEY AREN'T IN MY BLOG.


mercoledì 26 aprile 2017

THE CONCERT YEARS, VOLUME 2




Live in Laas Vegas. August 20, 1971. Dinner show.
No label.
AUDIO: * / *****
FLAC (no splitted tracks).





LINK: https://mega.nz/#!j5ggzRIB!obR37ADXlCCTGw7DpIYMLFMHBN4Fb20Jv8fypCzOtIg

6 commenti:

  1. Brilliant tyvm for this
    A great show setting the great work from Elvis
    The CDR that corresponds to this show is called "Shake It Loose"
    Thanks Marco my friend for this
    Happy Listening

    RispondiElimina
  2. Thank you Marco for this suite of jewels. Thanks to the walking-living Elvis encyclopedia called Ronny :-)

    RispondiElimina
  3. Yvw Il Gatto my friend /lol
    Keep well and enjoy the sounds and the info
    Greetings sent

    RispondiElimina
  4. Lol Il Gatto enjoy these gems
    Btw there are around 105 shows in this title of CDs
    I'm sure Marco may add them sometime here for all to enjoy
    Greetings sent

    RispondiElimina
  5. in fact MS and for split

    PERFORMER "Elvis Presley"
    TITLE "The Concert Years vol.2"
    FILE "type here what you have.wav" WAVE
    TRACK 01 AUDIO
    TITLE "Track01"
    PERFORMER "Elvis Presley"
    INDEX 01 00:00:00
    TRACK 02 AUDIO
    TITLE "Track02"
    PERFORMER "Elvis Presley"
    INDEX 01 00:20:11
    TRACK 03 AUDIO
    TITLE "Track03"
    PERFORMER "Elvis Presley"
    INDEX 01 02:04:25
    TRACK 04 AUDIO
    TITLE "Track04"
    PERFORMER "Elvis Presley"
    INDEX 01 05:13:35
    TRACK 05 AUDIO
    TITLE "Track05"
    PERFORMER "Elvis Presley"
    INDEX 01 08:01:57
    TRACK 06 AUDIO
    TITLE "Track06"
    PERFORMER "Elvis Presley"
    INDEX 01 10:25:32
    TRACK 07 AUDIO
    TITLE "Track07"
    PERFORMER "Elvis Presley"
    INDEX 01 15:21:21
    TRACK 08 AUDIO
    TITLE "Track08"
    PERFORMER "Elvis Presley"
    INDEX 01 17:01:11
    TRACK 09 AUDIO
    TITLE "Track09"
    PERFORMER "Elvis Presley"
    INDEX 01 20:37:44
    TRACK 10 AUDIO
    TITLE "Track10"
    PERFORMER "Elvis Presley"
    INDEX 01 22:13:37
    TRACK 11 AUDIO
    TITLE "Track11"
    PERFORMER "Elvis Presley"
    INDEX 01 23:46:39
    TRACK 12 AUDIO
    TITLE "Track12"
    PERFORMER "Elvis Presley"
    INDEX 01 25:24:17
    TRACK 13 AUDIO
    TITLE "Track13"
    PERFORMER "Elvis Presley"
    INDEX 01 26:27:71
    TRACK 14 AUDIO
    TITLE "Track14"
    PERFORMER "Elvis Presley"
    INDEX 01 27:39:69
    TRACK 15 AUDIO
    TITLE "Track15"
    PERFORMER "Elvis Presley"
    INDEX 01 28:48:69
    TRACK 16 AUDIO
    TITLE "Track16"
    PERFORMER "Elvis Presley"
    INDEX 01 29:58:29
    TRACK 17 AUDIO
    TITLE "Track17"
    PERFORMER "Elvis Presley"
    INDEX 01 32:19:70
    TRACK 18 AUDIO
    TITLE "Track18"
    PERFORMER "Elvis Presley"
    INDEX 01 34:32:13
    TRACK 19 AUDIO
    TITLE "Track19"
    PERFORMER "Elvis Presley"
    INDEX 01 36:32:69
    TRACK 20 AUDIO
    TITLE "Track20"
    PERFORMER "Elvis Presley"
    INDEX 01 39:44:62
    TRACK 21 AUDIO
    TITLE "Track21"
    PERFORMER "Elvis Presley"
    INDEX 00 41:35:66
    INDEX 01 41:35:68
    TRACK 22 AUDIO
    TITLE "Track22"
    PERFORMER "Elvis Presley"
    INDEX 01 42:44:20
    TRACK 23 AUDIO
    TITLE "Track23"
    PERFORMER "Elvis Presley"
    INDEX 01 44:13:41

    RispondiElimina